#TITLE:Captain Jack;
#SUBTITLE:Dead Master;
#ARTIST:Captain Jack;
#TITLETRANSLIT:;
#SUBTITLETRANSLIT:;
#ARTISTTRANSLIT:;
#CREDIT:;
#BANNER:bn.jpg;
#BACKGROUND:bg.jpg;
#LYRICSPATH:;
#CDTITLE:cd.png;
#MUSIC:Captain Jack.mp3;
#OFFSET:-0.255;
#SAMPLESTART:35.521;
#SAMPLELENGTH:12.000;
#SELECTABLE:YES;
#BPMS:0.000=170.139;
#STOPS:;
#BGCHANGES:;
// cache tags:
#FIRSTBEAT:0.000;
#LASTBEAT:245.750;
#SONGFILENAME:Songs/sdf/Captain Jack (Captain Jack)/Captain Jack.sm;
#HASMUSIC:1;
#HASBANNER:1;
#MUSICLENGTH:89.368;
// end cache tags

//---------------dance-single - ----------------
#NOTES:
     dance-single:
     :
     Hard:
     1:
     0.783,0.756,0.325,0.134,1.000,449.000,29.000,12.000,0.000,0.000:
2000
0000
0000
0000
0000
0000
0000
0000
0000
0000
0000
0000
3000
0010
0000
0010
,
0000
0100
0001
0000
0001
0000
1000
0010
0000
0010
0000
0100
0001
0000
0000
1000
,
0000
0010
0000
0100
0001
0000
0000
1000
0010
0000
0000
0010
0100
0000
0001
0000
,
0001
0000
1000
0000
0010
0000
0010
0000
0100
0001
0000
0001
0000
1000
0000
0010
,
0010
0000
0100
0000
0001
0000
0001
0000
0001
1000
0000
0000
0010
0010
0000
0100
,
0001
0000
0001
0000
1000
0000
1000
0010
0010
0000
0000
0100
0001
0000
0001
1000
,
0000
0010
0000
0010
0000
0010
0100
0000
0001
0000
0001
0000
1000
0000
0010
0010
,
0000
0100
0010
0000
0010
0000
0010
0000
0100
0000
0001
0001
0000
0000
1000
0010
,
0000
0010
0000
0100
0001
0000
0001
0000
0001
0000
1000
0010
0000
0010
0000
0100
,
0001
0000
0001
1000
0020
0000
0000
0000
0000
0000
0000
0000
0000
0000
0030
0200
,
0000
0000
0000
0000
0000
0000
0300
0010
0000
0010
0010
0000
1000
0000
0001
0000
,
0001
0000
0110
0000
0000
1000
0001
0000
0000
0100
0010
0000
0100
0000
0001
0000
,
0001
0000
1000
0010
0000
0000
0100
0001
0000
0100
0001
0000
0010
0000
0000
0010
,
1000
0001
0000
0000
0100
0010
0010
0100
0000
0001
0000
0001
0000
0000
0010
0000
,
0010
0100
0000
1000
0000
0110
0000
0010
0000
0100
0001
0000
0100
0000
0010
0010
,
0000
0100
2000
0000
0000
0000
3000
0010
0000
0010
0100
0010
0000
0000
0100
0001
,
0000
0002
0000
1000
0000
0000
0003
0010
0100
0010
0000
0010
0000
0100
0000
0010
,
0000
0000
1000
0010
0000
0010
0000
0100
0001
0000
1000
0000
0000
0000
0010
0000
,
0010
0000
0100
0010
0000
0001
0010
0000
1000
0000
0100
0010
0000
0000
0000
0101
,
0000
0000
1010
0000
0000
0000
0000
0110
0000
0000
0000
0000
0101
0101
0000
0000
,
0000
1010
0000
0110
0000
0000
0101
0101
,
0010
1000
1010
0000
0000
0001
0101
0000
0000
0000
0110
0000
0000
0000
1010
0010
,
1000
0000
0001
0100
0001
0100
0010
0100
0000
0000
0101
0000
0000
0000
0010
0000
,
1010
0000
0000
0101
0000
0000
0000
0110
0000
0000
0001
1000
0000
0000
1010
0000
,
0101
0000
0000
1010
0000
0000
0000
0101
0000
0000
0000
0110
0000
0001
1010
0000
,
0000
0100
0000
0010
0000
0020
0000
0000
0000
0000
0030
0000
0001
0010
0000
0100
,
1000
0100
0010
0000
0010
0000
0100
0000
0000
0000
1000
0000
0000
0000
2000
0000
,
0000
0000
0000
0000
0000
0000
0000
0000
0000
0000
0000
0000
0000
0000
0010
3000
,
0000
0010
0000
0001
0000
0001
0000
0100
0010
0000
0000
1000
0010
0000
0010
0000
,
0100
0000
0010
0000
0000
0001
0100
0000
0010
0000
1000
0010
0000
0010
0000
0100
,
0000
0001
0000
0101
0000
0000
0010
0000
0000
1010
0000
0010
0000
0100
0000
0002
,
0000
0000
0000
0000
0000
0000
0000
0013
,
0010
0000
0100
1000
0100
0010
0000
0010
0000
0010
0000
0100
0010
0000
0010
1000
,
0000
0010
0000
0001
0000
0000
0100
0010
0000
0000
1000
0000
0100
0010
0010
0000
,
0000
0001
0000
0001
0000
0100
1000
0100
0010
0000
0000
0010
0000
0000
0000
0002
,
0000
0000
0010
0003
0100
0000
1000
0100
0000
0010
0010
0000
0000
0000
0100
0001
,
0010
0000
0100
1000
0000
0100
0010
0010
0000
0100
0000
0001
0000
0000
0000
0010
,
0000
0100
0000
0010
0000
0000
0000
0100
0010
0000
0001
0000
0000
0000
0100
0010
,
0000
1000
0000
0010
0000
0100
0010
0000
0101
0000
0000
0010
0000
0000
1000
0000
,
0010
0000
0100
0001
0000
0100
0010
0000
0100
0000
0010
0000
1000
0000
0001
0000
,
0010
0000
0100
0000
0010
0000
0100
0000
0010
1000
0000
0001
0000
0000
0000
0010
,
0100
0000
0010
0000
0000
0000
0100
0000
0010
0000
0100
0000
0000
0000
0001
0001
,
0000
1000
0000
0010
0000
0010
0000
0100
0000
0001
0000
0020
0000
0000
0000
0030
,
0000
0010
0000
0010
0000
0100
0000
1001
0000
0001
0000
0001
0000
0100
0000
0010
,
0000
0010
0000
2000
0000
0000
0000
0000
0000
3010
0000
0010
0000
0010
0000
0100
,
0001
0000
0001
0000
0100
0000
0010
1000
0000
0010
0000
0100
0000
0010
0000
0100
,
0001
0000
0000
0100
0010
0000
1000
0000
0010
0000
0100
0001
0000
1000
0000
0010
,
0000
0100
0000
0010
0000
0100
0001
0000
0000
1000
0010
0000
0000
0010
0000
0100
,
0001
0000
0000
1000
0010
0000
0000
0100
0010
0000
1000
0000
0001
0000
0000
0100
,
0010
0000
1000
0000
0001
0000
0100
0010
0000
0000
1000
0000
0001
0000
0100
0010
,
0000
0000
1000
0010
0000
0000
0100
0001
0000
1000
0000
0010
0000
0100
0000
0010
,
0000
0000
0001
0000
0000
0001
0000
0001
0000
0000
0001
0000
0001
0000
0010
0000
,
0000
0010
0000
0010
0000
0000
0100
0000
0100
0000
0000
0100
0000
0100
0000
0010
,
0000
0010
0000
0010
0000
0000
0010
0000
0000
0010
0000
0010
0000
0000
0000
0001
,
0000
0001
0000
0001
0000
0001
0000
0000
0001
0000
0001
0000
0001
0000
0000
1000
,
0000
1000
0000
1000
0000
0000
1000
0000
1000
0000
1000
0000
1000
0000
0010
0000
,
0010
0000
0000
0010
0000
0010
0000
0000
0010
0000
0010
0000
0010
0000
0100
0000
,
0000
0100
0000
0000
0100
0000
0100
0000
0000
0100
0000
0100
0000
0000
0001
0000
,
0001
0000
0001
0000
0001
0000
0000
0001
0000
0001
0000
0001
0000
0000
0000
0000
,
0020
0000
0000
0000
0000
0000
0000
0000
0000
0000
0000
0000
0000
0000
0030
0100
,
1000
0000
0000
0010
0000
0010
0000
0100
0001
0000
0100
0000
0010
0001
0000
0000
,
0010
0000
1000
0010
0000
0000
0100
0010
0000
0000
0000
0000
0000
0000
0000
0000
;
